百度云資源論壇

 找回密碼
 立即注冊
打印 上一主題 下一主題

蜘蛛俠:英雄遠征/新蜘蛛俠2 Spider-Man.Far.from.Home.2019.1080p.3D.B...

[復制鏈接]
跳轉到指定樓層
樓主



帖子完整標題:蜘蛛俠:英雄遠征/新蜘蛛俠2 Spider-Man.Far.from.Home.2019.1080p.3D.BluRay.Half-SBS.x264.TrueHD.7.1.Atmos-FGT 19.89GB




◎譯  名 蜘蛛俠:英雄遠征 / 新蜘蛛俠2 / 蜘蛛俠2 / 蜘蛛俠2:離家出走(豆友譯名) / 蜘蛛俠2:英雄離鄉 / 蜘蛛俠2:遠離家鄉 / 蜘蛛俠:決戰千里(港) / 蜘蛛俠:歸來2 / 蜘蛛俠:離家日(臺) / 蜘蛛俠:英雄歸來2 / 蜘蛛俠:遠離故鄉
◎片  名 Spider-Man: Far from Home
◎年  代 2019
◎產  地 美國
◎類  別 動作 / 科幻 / 冒險
◎語  言 英語
◎上映日期 2019-06-28(中國大陸) / 2019-07-02(美國)
◎IMDb評分  7.9/10 from 161425 users
◎片  長 127分鐘
◎導  演 喬·沃茨 Jon Watts
◎編  劇 克里斯·麥克納 Chris McKenna / 埃里克·薩默斯 Erik Sommers / 史蒂夫·迪特寇 Steve Ditko / 斯坦·李 Stan Lee
◎主  演 湯姆·赫蘭德 Tom Holland
       贊達亞 Zendaya
       杰克·吉倫哈爾 Jake Gyllenhaal
       寇碧·史莫德斯 Cobie Smulders
       塞繆爾·杰克遜 Samuel L. Jackson
       喬恩·費儒 Jon Favreau
       瑪麗莎·托梅 Marisa Tomei
       雅各布·巴特朗 Jacob Batalon
       安格瑞·賴斯 Angourie Rice
       馬丁·斯塔爾 Martin Starr
       瑞米·海依 Remy Hii
       紐曼·阿卡 Numan Acar
       托尼·雷沃羅利 Tony Revolori
       J·B·斯穆夫 J.B. Smoove
       赫米基·馬德拉 Hemky Madera
       戴維娜·西塔拉姆 Davina Sitaram
       約瑟夫·朗 Joseph Long
       露絲·霍洛克斯 Ruth Horrocks
       哈廷·帕特爾 Hiten Patel
       杰羅恩·凡·康寧斯伯格 Jeroen van Koningsbrugge
       Leonys Delossantos
       查利·蕾婭·埃斯奎爾 Charlie Rhea Esquér
       費斯·洛根 Faith Logan
       J·K·西蒙斯 J.K. Simmons
       小羅伯特·唐尼 Robert Downey Jr.


◎標  簽 漫威 | 超級英雄 | 美國 | 科幻 | 2019 | 成長 | 動作 | 漫畫改編

◎簡  介  

  在復仇者聯盟眾英雄的努力下,于滅霸無限手套事件中化作為灰燼的人們,重新回到了人世間,曾經消失的蜘蛛俠 彼得帕克 也回歸到了普通的生活之中,數月后,蜘蛛俠彼得帕克所在的學校舉行了歐洲旅游,帕克也在其中, 在歐州威尼斯旅行時,一個巨大無比的水怪襲擊了威尼斯,不敵敵人的蜘蛛俠幸得一位自稱神秘客的男子搭救才擊退敵人,之后 神盾局局長找上正在旅游的彼得帕克并要求其加入神盾局,并安排神秘客協助帕克,神秘客自稱來自其他宇宙,并告知一群名為元素眾的邪惡勢力已經入侵這個宇宙了,為了守護來之不易的和平,蜘蛛俠決定與神秘客聯手,然而在神秘客那頭罩之中,似乎隱藏著什么不為人知的真相……

◎獲獎情況  

  第5屆豆瓣電影年度榜單(2018)
  最值得期待的外語電影(提名)
Video
ID                                       : 1
Format                                   : AVC
Format/Info                              : Advanced Video Codec
Format settings                          : CABAC / 3 Ref Frames
Format settings, CABAC                   : Yes
Format settings, Reference frames        : 3 frames
Codec ID                                 : V_MPEG4/ISO/AVC
Duration                                 : 2 h 9 min
Bit rate                                 : 15.5 Mb/s
Width                                    : 1 920 pixels
Height                                   : 1 080 pixels
Display aspect ratio                     : 16:9
Frame rate mode                          : Constant
Frame rate                               : 23.976 (24000/1001) FPS
Color space                              : YUV
Chroma subsampling                       : 4:2:0
Bit depth                                : 8 bits
Scan type                                : Progressive
Bits/(Pixel*Frame)                       : 0.312
Stream size                              : 14.0 GiB (71%)
Title                                    : Spider.Man.Far.from.Home.2019.1080p.3D.BluRay.Half-SBS.x264.TrueHD.7.1.Atmos-FGT
Writing library                          : x264 core 148
Encoding settings                        : cabac=1 / ref=3 / deblock=1:-1:-1 / analyse=0x3:0 / me=hex / subme=5 / psy=1 / psy_rd=1.00:0.00 / mixed_ref=0 / me_range=16 / chroma_me=1 / trellis=1 / 8x8dct=1 / cqm=0 / deadzone=21,11 / fast_pskip=0 / chroma_qp_offset=0 / threads=24 / lookahead_threads=6 / sliced_threads=0 / nr=0 / decimate=1 / interlaced=0 / bluray_compat=0 / constrained_intra=0 / bframes=2 / b_pyramid=0 / b_adapt=1 / b_bias=0 / direct=1 / weightb=0 / open_gop=0 / weightp=0 / keyint=24 / keyint_min=2 / scenecut=40 / intra_refresh=0 / rc=abr / mbtree=0 / bitrate=15500 / ratetol=1.0 / qcomp=0.60 / qpmin=0 / qpmax=69 / qpstep=4 / ip_ratio=1.40 / pb_ratio=1.30 / aq=1:1.00
Default                                  : Yes
Forced                                   : No
Color range                              : Limited
Color primaries                          : BT.709
Transfer characteristics                 : BT.709
Matrix coefficients                      : BT.709

Audio #1
ID                                       : 2
Format                                   : MLP FBA 16-ch
Format/Info                              : Meridian Lossless Packing FBA with 16-channel presentation
Commercial name                          : Dolby TrueHD with Dolby Atmos
Codec ID                                 : A_TRUEHD
Duration                                 : 2 h 9 min
Bit rate mode                            : Variable
Bit rate                                 : 3 077 kb/s
Maximum bit rate                         : 5 397 kb/s
Channel(s)                               : 8 channels
Channel layout                           : L R C LFE Ls Rs Lb Rb
Sampling rate                            : 48.0 kHz
Frame rate                               : 1 200.000 FPS (40 SPF)
Compression mode                         : Lossless
Stream size                              : 2.78 GiB (14%)
Title                                    : Spider.Man.Far.from.Home.2019.1080p.3D.BluRay.Half-SBS.x264.TrueHD.7.1.Atmos-FGT
Language                                 : English
Default                                  : Yes
Forced                                   : No
Number of dynamic objects                : 11
Bed channel count                        : 1 channel
Bed channel configuration                : LFE

Audio #2
ID                                       : 3
Format                                   : AC-3
Format/Info                              : Audio Coding 3
Commercial name                          : Dolby Digital
Codec ID                                 : A_AC3
Duration                                 : 2 h 9 min
Bit rate mode                            : Constant
Bit rate                                 : 640 kb/s
Channel(s)                               : 6 channels
Channel layout                           : L R C LFE Ls Rs
Sampling rate                            : 48.0 kHz
Frame rate                               : 31.250 FPS (1536 SPF)
Bit depth                                : 16 bits
Compression mode                         : Lossy
Stream size                              : 592 MiB (3%)
Title                                    : Spider.Man.Far.from.Home.2019.1080p.3D.BluRay.Half-SBS.x264.TrueHD.7.1.Atmos-FGT
Language                                 : English
Service kind                             : Complete Main
Default                                  : No
Forced                                   : No

Audio #3
ID                                       : 4
Format                                   : AC-3
Format/Info                              : Audio Coding 3
Commercial name                          : Dolby Digital
Codec ID                                 : A_AC3
Duration                                 : 2 h 9 min
Bit rate mode                            : Constant
Bit rate                                 : 640 kb/s
Channel(s)                               : 6 channels
Channel layout                           : L R C LFE Ls Rs
Sampling rate                            : 48.0 kHz
Frame rate                               : 31.250 FPS (1536 SPF)
Bit depth                                : 16 bits
Compression mode                         : Lossy
Stream size                              : 592 MiB (3%)
Title                                    : Spider.Man.Far.from.Home.2019.1080p.3D.BluRay.Half-SBS.x264.TrueHD.7.1.Atmos-FGT
Language                                 : Hindi
Service kind                             : Complete Main
Default                                  : No
Forced                                   : No

Audio #4
ID                                       : 5
Format                                   : AC-3
Format/Info                              : Audio Coding 3
Commercial name                          : Dolby Digital
Codec ID                                 : A_AC3
Duration                                 : 2 h 9 min
Bit rate mode                            : Constant
Bit rate                                 : 640 kb/s
Channel(s)                               : 6 channels
Channel layout                           : L R C LFE Ls Rs
Sampling rate                            : 48.0 kHz
Frame rate                               : 31.250 FPS (1536 SPF)
Bit depth                                : 16 bits
Compression mode                         : Lossy
Stream size                              : 592 MiB (3%)
Title                                    : Spider.Man.Far.from.Home.2019.1080p.3D.BluRay.Half-SBS.x264.TrueHD.7.1.Atmos-FGT
Language                                 : Tamil
Service kind                             : Complete Main
Default                                  : No
Forced                                   : No

Audio #5
ID                                       : 6
Format                                   : AC-3
Format/Info                              : Audio Coding 3
Commercial name                          : Dolby Digital
Codec ID                                 : A_AC3
Duration                                 : 2 h 9 min
Bit rate mode                            : Constant
Bit rate                                 : 640 kb/s
Channel(s)                               : 6 channels
Channel layout                           : L R C LFE Ls Rs
Sampling rate                            : 48.0 kHz
Frame rate                               : 31.250 FPS (1536 SPF)
Bit depth                                : 16 bits
Compression mode                         : Lossy
Stream size                              : 592 MiB (3%)
Title                                    : Spider.Man.Far.from.Home.2019.1080p.3D.BluRay.Half-SBS.x264.TrueHD.7.1.Atmos-FGT
Language                                 : Telugu
Service kind                             : Complete Main
Default                                  : No
Forced                                   : No

Audio #6
ID                                       : 7
Format                                   : AC-3
Format/Info                              : Audio Coding 3
Commercial name                          : Dolby Digital
Codec ID                                 : A_AC3
Duration                                 : 2 h 9 min
Bit rate mode                            : Constant
Bit rate                                 : 640 kb/s
Channel(s)                               : 6 channels
Channel layout                           : L R C LFE Ls Rs
Sampling rate                            : 48.0 kHz
Frame rate                               : 31.250 FPS (1536 SPF)
Bit depth                                : 16 bits
Compression mode                         : Lossy
Stream size                              : 592 MiB (3%)
Title                                    : Spider.Man.Far.from.Home.2019.1080p.3D.BluRay.Half-SBS.x264.TrueHD.7.1.Atmos-FGT
Language                                 : Thai
Service kind                             : Complete Main
Default                                  : No
Forced                                   : No

Text #1
ID                                       : 8
Format                                   : PGS
Muxing mode                              : zlib
Codec ID                                 : S_HDMV/PGS
Codec ID/Info                            : Picture based subtitle format used on BDs/HD-DVDs
Duration                                 : 2 h 7 min
Bit rate                                 : 47.9 kb/s
Count of elements                        : 3450
Stream size                              : 43.7 MiB (0%)
Title                                    : English-PGS
Language                                 : English
Default                                  : Yes
Forced                                   : No

Text #2
ID                                       : 9
Format                                   : PGS
Muxing mode                              : zlib
Codec ID                                 : S_HDMV/PGS
Codec ID/Info                            : Picture based subtitle format used on BDs/HD-DVDs
Duration                                 : 2 h 7 min
Bit rate                                 : 47.9 kb/s
Count of elements                        : 3466
Stream size                              : 43.7 MiB (0%)
Title                                    : English-PGS
Language                                 : English
Default                                  : No
Forced                                   : No

Text #3
ID                                       : 10
Format                                   : PGS
Muxing mode                              : zlib
Codec ID                                 : S_HDMV/PGS
Codec ID/Info                            : Picture based subtitle format used on BDs/HD-DVDs
Duration                                 : 2 h 8 min
Bit rate                                 : 38.8 kb/s
Count of elements                        : 3460
Stream size                              : 35.7 MiB (0%)
Title                                    : Chinese-PGS
Language                                 : Chinese
Default                                  : No
Forced                                   : No

Text #4
ID                                       : 11
Format                                   : PGS
Muxing mode                              : zlib
Codec ID                                 : S_HDMV/PGS
Codec ID/Info                            : Picture based subtitle format used on BDs/HD-DVDs
Duration                                 : 2 h 8 min
Bit rate                                 : 40.0 kb/s
Count of elements                        : 3454
Stream size                              : 36.8 MiB (0%)
Title                                    : Chinese-PGS
Language                                 : Chinese
Default                                  : No
Forced                                   : No

Text #5
ID                                       : 12
Format                                   : PGS
Muxing mode                              : zlib
Codec ID                                 : S_HDMV/PGS
Codec ID/Info                            : Picture based subtitle format used on BDs/HD-DVDs
Duration                                 : 2 h 8 min
Bit rate                                 : 34.6 kb/s
Count of elements                        : 3496
Stream size                              : 31.8 MiB (0%)
Title                                    : Chinese-PGS
Language                                 : Chinese
Default                                  : No
Forced                                   : No

Text #6
ID                                       : 13
Format                                   : PGS
Muxing mode                              : zlib
Codec ID                                 : S_HDMV/PGS
Codec ID/Info                            : Picture based subtitle format used on BDs/HD-DVDs
Duration                                 : 2 h 8 min
Bit rate                                 : 46.5 kb/s
Count of elements                        : 3326
Stream size                              : 42.8 MiB (0%)
Title                                    : Indonesian-PGS
Language                                 : Indonesian
Default                                  : No
Forced                                   : No

Text #7
ID                                       : 14
Format                                   : PGS
Muxing mode                              : zlib
Codec ID                                 : S_HDMV/PGS
Codec ID/Info                            : Picture based subtitle format used on BDs/HD-DVDs
Duration                                 : 2 h 8 min
Bit rate                                 : 35.5 kb/s
Count of elements                        : 3484
Stream size                              : 32.6 MiB (0%)
Title                                    : Korean-PGS
Language                                 : Korean
Default                                  : No
Forced                                   : No

Text #8
ID                                       : 15
Format                                   : PGS
Muxing mode                              : zlib
Codec ID                                 : S_HDMV/PGS
Codec ID/Info                            : Picture based subtitle format used on BDs/HD-DVDs
Duration                                 : 2 h 8 min
Bit rate                                 : 51.7 kb/s
Count of elements                        : 3440
Stream size                              : 47.4 MiB (0%)
Title                                    : Malay-PGS
Language                                 : Malay
Default                                  : No
Forced                                   : No

Text #9
ID                                       : 16
Format                                   : PGS
Muxing mode                              : zlib
Codec ID                                 : S_HDMV/PGS
Codec ID/Info                            : Picture based subtitle format used on BDs/HD-DVDs
Duration                                 : 2 h 8 min
Bit rate                                 : 35.8 kb/s
Count of elements                        : 3504
Stream size                              : 32.9 MiB (0%)
Title                                    : Thai-PGS
Language                                 : Thai
Default                                  : No
Forced                                   : No

Text #10
ID                                       : 17
Format                                   : PGS
Muxing mode                              : zlib
Codec ID                                 : S_HDMV/PGS
Codec ID/Info                            : Picture based subtitle format used on BDs/HD-DVDs
Duration                                 : 2 h 8 min
Bit rate                                 : 48.7 kb/s
Count of elements                        : 3428
Stream size                              : 44.8 MiB (0%)
Title                                    : Vietnamese-PGS
Language                                 : Vietnamese
Default                                  : No
Forced                                   : No

Menu
00:00:00.000                             : en:Chapter 01
00:09:35.074                             : en:Chapter 02
00:16:06.966                             : en:Chapter 03
00:25:18.558                             : en:Chapter 04
00:35:26.666                             : en:Chapter 05
00:41:57.097                             : en:Chapter 06
00:49:50.070                             : en:Chapter 07
00:57:09.676                             : en:Chapter 08
01:04:50.761                             : en:Chapter 09
01:15:57.261                             : en:Chapter 10
01:22:49.089                             : en:Chapter 11
01:29:25.318                             : en:Chapter 12
01:36:43.255                             : en:Chapter 13
01:44:47.364                             : en:Chapter 14
01:52:17.814                             : en:Chapter 15
01:57:45.516                             : en:Chapter 16



                                                                                                                                                                                                        
                                                                                                                                                                                                                                                                                                                                                                                                                                                                                                                                                                                                                                                                                                                                                                                                                                                       7b81259f1fba8c003d0efbb95cb04d1b.torrent (100.03 KB)


回復

使用道具 舉報

小黑屋|百度云資源分享吧 ( 京ICP備15014721號-2 )

本網站所有資源來自網絡,如無意中侵犯了您的權益,請發郵件至 [email protected],立即清除相關鏈接

GMT+8, 2020-5-28 22:02 , Processed in 0.124566 second(s), 20 queries .

Powered by Discuz! X3.2

© 2001-2013 Comsenz Inc.

快速回復 返回頂部 返回列表
一波中特期期公开